the walking dead High Castle s03e07 etmovies doctor who s11e03 venom porn fgt ant man Lia M NASCAR Blindspot FEAR THE WALKING DEAD evo Greys Anatomy office 2019 WINDOWS 10 ncis the walking dead s09e03 Dtone 2018 ita vikings ethd 1080p 2018 "Alicia Monet" family guy 0 daredevil game of thrones ita formula 1 Lethal Weapon etrg modern family nfl Big bang theory Supergirl s04e02 supergirl the last ship ettv lopez nussa dtone shameless Survivor ddr arrow español wwe empire 2160p SUPERNATURAL hindi ita 2018 last week tonight lucifer season complete shameless s09e07 you walking dead the flash Better Call saul arrow Talking Dead american horror story girlsdoporn The Big Bang Theory 1080p YIFY doctor who incredibles 2 star trek discovery star trek discovery español 
Warning! Do not Download Without a VPN!
Your IP Address is .   Location is
Download and surf securely, stream unlimited and protect your personal data!
We strongly recommend using SpyOFF VPN!
Become Anonymous with SpyOFF
ETTV Recommended TV Shows
Arrow.S07E02.HDTV.x264-SVA[ettv] torrent
DCs.Legends.of.Tomorrow.S04E01.HDTV.x264-SVA[ettv] torrent
Magnum.P.I.2018.S01E05.HDTV.x264-SVA[ettv] torrent
Manifest.S01E05.HDTV.x264-KILLERS[ettv] torrent

ETTV Recommended Xvid
Mile.22.2018.HDRip.XviD.AC3-EVO[EtMovies] torrent
The.Scorpion.King.Book.of.Souls.2018.HDRip.XViD-ETRG torrent
BlacKkKlansman.2018.HDRip.XViD.AC3-ETRG torrent
A.Happening.of.Monumental.Proportions.2018.HDRip.XViD-ETRG torrent

ETTV Recommended HD
Incredibles.2.2018.1080p.WEB-DL.DD5.1.H264-CMRG[EtHD] torrent
BlacKkKlansman.2018.1080p.WEB-DL.DD5.1.H264-CMRG[EtHD] torrent
Scorpion.King.The.Book.of.Souls.2018.1080p.WEB-DL.H264.AC3-EVO[EtHD] torrent
Mile.22.2018.1080p.HDRip.X264.AC3-EVO[EtHD] torrent

ETTV Recommended UHD
Constantine.City.of.Demons.2018.2160p.BluRay.x265.10bit.HDR.DTS-HD.MA.5.1-SWTYBLZ[EtHD] torrent
Your.Name.2016.2160p.UHD.BluRay.x265-VALiS[EtHD] torrent
Peter.Rabbit.2018.PLDUB.DUAL.2160p.UHD.BluRay.x265-FLAME[EtHD] torrent
Death.Wish.2018 BluRay 2160p DTS MA5 1 x265 10bit-CHD[EtHD] torrent

ETTV Recommended Cam
Bad Times at the El Royale 2018.HDCAM.XViD.AC3-ETRG torrent
Goosebumps 2 Haunted Halloween 2018 HDTS.x264.AC3-ETRG torrent
Halloween 2018.HDCAM.XViD.AC3-ETRG torrent
Night School 2018 HDTS XViD AC3-ETRG torrent

ETTV Recommended Foreign
The Avengers Trilogy (2012-2018) 1080p BluRay x264 Dual Audio [Hindi - English] DD5.1 - ESUB ~ Ranvijay torrent
Naa.Bangaaru.Talli.2013.1080p.NF.WebDL.AVC.DDP.5.1-DTOne torrent
Insidious The Last Key (2017) 1080p BluRay x264 Dual Audio [Hindi DD5.1 640 Kbps - English DD5.1] - MSUBS ~ Ranvijay torrent
Chotay Shah 2016 Hindi Untouched WebDL 1080p x264 - mkvCinemas torrent

Social


Download Torrent "Young Sheldon S02E01 (1080p WEBRip x265 HEVC 10bit AAC 5.1 Joy) [UTR]"

IMDB Details
Description:

N/A

Genre:

N/A

Download Torrent (Magnet)
Download Torrent (File)
Seeds: 142
Leechers: 51
Completed: 1,365 
Last Checked: 07-10-2018 17:18:27


Loading...
Details
Title:Young Sheldon S02E01 (1080p WEBRip x265 HEVC 10bit AAC 5.1 Joy) [UTR]
Description:



Media Information
General
Format                                   : Matroska
Format version                           : Version 4 / Version 2
File size                                : 198 MiB
Duration                                 : 19 min 29 s
Overall bit rate                         : 1 424 kb/s
Encoded date                             : UTC 2018-10-06 04:42:02
Writing application                      : mkvmerge v24.0.0 ('Beyond The Pale') 64-bit
Writing library                          : libebml v1.3.6 + libmatroska v1.4.9
Writing frontend                         : StaxRip v1.8.2.0

Video
ID                                       : 1
Format                                   : HEVC
Format/Info                              : High Efficiency Video Coding
Format profile                           : Main [email protected]@Main
Codec ID                                 : V_MPEGH/ISO/HEVC
Duration                                 : 19 min 29 s
Bit rate                                 : 1 201 kb/s
Width                                    : 1 920 pixels
Height                                   : 1 080 pixels
Display aspect ratio                     : 16:9
Frame rate mode                          : Constant
Frame rate                               : 24.000 FPS
Color space                              : YUV
Chroma subsampling                       : 4:2:0
Bit depth                                : 10 bits
Bits/(Pixel*Frame)                       : 0.024
Stream size                              : 167 MiB (84%)
Writing library                          : x265 2.8+19-bcdc610cf5f0:[Windows][MSVC 1914][64 bit] 10bit
Encoding settings                        : cpuid=1111039 / frame-threads=3 / numa-pools=8 / wpp / no-pmode / no-pme / no-psnr / ssim / log-level=2 / input-csp=1 / input-res=1920x1080 / interlace=0 / total-frames=28059 / level-idc=0 / high-tier=1 / uhd-bd=0 / ref=4 / no-allow-non-conformance / no-repeat-headers / annexb / no-aud / no-hrd / info / hash=0 / no-temporal-layers / open-gop / min-keyint=24 / keyint=250 / gop-lookahead=0 / bframes=4 / b-adapt=2 / b-pyramid / bframe-bias=0 / rc-lookahead=80 / lookahead-slices=4 / scenecut=40 / radl=0 / no-intra-refresh / ctu=64 / min-cu-size=8 / no-rect / no-amp / max-tu-size=32 / tu-inter-depth=1 / tu-intra-depth=1 / limit-tu=0 / rdoq-level=2 / dynamic-rd=0.00 / ssim-rd / signhide / no-tskip / nr-intra=0 / nr-inter=0 / no-constrained-intra / strong-intra-smoothing / max-merge=3 / limit-refs=3 / limit-modes / me=3 / subme=3 / merange=57 / temporal-mvp / weightp / no-weightb / no-analyze-src-pics / deblock=0:0 / sao / no-sao-non-deblock / rd=4 / no-early-skip / rskip / no-fast-intra / no-tskip-fast / no-cu-lossless / no-b-intra / no-splitrd-skip / rdpenalty=0 / psy-rd=0.00 / psy-rdoq=1.00 / no-rd-refine / no-lossless / cbqpoffs=0 / crqpoffs=0 / rc=abr / bitrate=1200 / qcomp=0.60 / qpstep=4 / stats-write=0 / stats-read=2 / cplxblur=20.0 / qblur=0.5 / vbv-maxrate=4500 / vbv-bufsize=9000 / vbv-init=0.9 / ipratio=1.40 / pbratio=1.30 / aq-mode=2 / aq-strength=0.80 / cutree / zone-count=0 / no-strict-cbr / qg-size=32 / no-rc-grain / qpmax=69 / qpmin=0 / no-const-vbv / sar=0 / overscan=0 / videoformat=5 / range=0 / colorprim=2 / transfer=2 / colormatrix=2 / chromaloc=0 / display-window=0 / max-cll=0,0 / min-luma=0 / max-luma=1023 / log2-max-poc-lsb=8 / vui-timing-info / vui-hrd-info / slices=1 / no-opt-qp-pps / no-opt-ref-list-length-pps / multi-pass-opt-rps / scenecut-bias=0.05 / no-opt-cu-delta-qp / no-aq-motion / no-hdr / no-hdr-opt / no-dhdr10-opt / no-idr-recovery-sei / analysis-reuse-level=10 / scale-factor=0 / refine-intra=0 / refine-inter=0 / refine-mv=0 / limit-sao / ctu-info=0 / no-lowpass-dct / refine-mv-type=0 / copy-pic=1 / max-ausize-factor=1.0 / no-dynamic-refine / no-single-sei
Default                                  : Yes
Forced                                   : No

Audio
ID                                       : 2
Format                                   : AAC
Format/Info                              : Advanced Audio Codec
Format profile                           : HE-AAC / LC
Codec ID                                 : A_AAC
Duration                                 : 19 min 29 s
Bit rate                                 : 221 kb/s
Channel(s)                               : 6 channels
Channel positions                        : Front: L C R, Side: L R, LFE
Sampling rate                            : 48.0 kHz / 24.0 kHz
Frame rate                               : 23.438 FPS (1024 spf)
Compression mode                         : Lossy
Delay relative to video                  : 31 ms
Stream size                              : 30.8 MiB (15%)
Language                                 : English
Default                                  : No
Forced                                   : No

Subtitle
ID                                       : 3
Format                                   : UTF-8
Codec ID                                 : S_TEXT/UTF8
Codec ID/Info                            : UTF-8 Plain Text
Duration                                 : 19 min 6 s
Bit rate                                 : 88 b/s
Count of elements                        : 452
Stream size                              : 12.4 KiB (0%)
Language                                 : English
Default                                  : No
Forced                                   : No

Source Information
Release: Young.Sheldon.S02E01.A.High-Pitched.Buzz.and.Training.Wheels.1080p.AMZN.WEB-DL.DDP5.1.H.264-NTb (1.30 GBs)


UTR wrote:

Note From UTR
We have no issue with individuals posting or re-uploading our torrents on a platform we aren't on. However, if this is something you'd like to do, please do so in a 'as-is' format. We ask that you do not create a new torrent, include all descriptions you see above including the UTR logo, tags, notes and screenshots. If you'd like to become a permanent poster on a website we don't post to, feel free to get in contact with a UniTeam member.

If possible please donate: BTC 1QA5fum5AyXvWzdVCkQzUNvw3Ef15fHRaR


Category:TV > HEVC/x265
Lang:English  English
Total Size:198 MB
Info Hash:b49c8cdb29b76860b5773f6049200fab1f93956e
Added By:UTR
Date Added:07-10-2018 17:18:19

Files

File List: 
 File Size
Young Sheldon S02E01 A High-Pitched Buzz and Training Wheels (1080p x265 10bit S89 Joy).mkv198 MB



Loading...
Comments

There are currently no comments. Be the first one to write something !

Disclaimer: None of the files shown here are actually hosted or transmitted by this server. The links are provided solely by this site's users. The site moderation is also a service provided by the site's users. The administrator of this site (ettv.tv) cannot be held responsible for what its users post, or any other actions of its users. You may not use this site to distribute or download any material when you do not have the legal rights to do so. It is your own responsibility to adhere to these terms.

Sitemap